#TITLE:Attacked from all sides;
#SUBTITLE:Initiate;
#ARTIST:Jay Chou;
#TITLETRANSLIT:;
#SUBTITLETRANSLIT:;
#ARTISTTRANSLIT:;
#CREDIT:;
#BANNER:smcg-bn.png;
#BACKGROUND:smcg-bg.png;
#LYRICSPATH:;
#CDTITLE:cdtitle.png;
#MUSIC:Simianchuge.ogg;
#OFFSET:0.000;
#SAMPLESTART:100.000;
#SAMPLELENGTH:12.000;
#SELECTABLE:YES;
#BPMS:0.000=95.000;
#STOPS:;
#BGCHANGES:;
// cache tags:
#FIRSTBEAT:0.000;
#LASTBEAT:226.500;
#SONGFILENAME:Songs/Initiate/Simianchuge/Simianchuge.sm;
#HASMUSIC:1;
#HASBANNER:1;
#MUSICLENGTH:143.305;
// end cache tags

//---------------dance-single - ----------------
#NOTES:
     dance-single:
     :
     Hard:
     10:
     1.000,1.000,1.000,1.000,0.652,612.000,277.000,264.000,0.000,152.000:
2000
0000
0000
0000
0000
0000
0000
0000
3000
0200
0000
0000
0000
0000
0000
0000
0000
0000
0300
0000
0000
0000
0000
0000
0001
0000
0000
0000
0000
0000
0010
0000
0000
0000
0000
0000
0100
0000
0000
0000
0000
0000
1000
0000
0000
0000
0000
0000
,
0100
0001
0010
0100
0010
0001
1000
0001
,
0010
0100
1000
0001
0010
0100
0010
0001
,
1000
0000
0100
0000
0010
0000
0001
0000
0110
0000
1100
0000
1110
0101
0010
0000
,
0011
0000
0011
0100
0011
0000
0000
0000
1002
0023
0230
0300
0101
0000
1010
0000
,
0101
0000
1100
0000
0011
0000
0010
0000
2001
3200
0320
0030
1010
0000
0101
0000
,
1010
0000
0011
0000
1100
0000
0001
0000
2010
3200
0320
0030
0011
0000
1100
0000
,
0011
0000
1010
0000
0101
0000
1000
0000
0102
0023
0230
0300
1100
0000
0011
0000
,
1100
1100
0101
0101
1010
1010
1001
0100
1020
0000
0100
0030
1210
0001
0010
0301
,
2100
0000
0000
0000
0100
0001
3010
0000
1102
0000
0010
0000
0100
0000
0013
0000
1200
0000
0000
0000
0010
0000
0301
0000
1120
0000
0001
0000
1000
0000
0030
0000
,
2001
0000
0000
0000
0100
0001
3010
0000
1102
0000
0010
0000
1000
0000
0103
0000
2020
0000
3000
0000
1000
0000
0030
0000
1201
0000
0010
0000
0001
0000
0310
0000
,
2001
0000
0100
0001
0010
0000
3000
0000
0112
0000
1000
0000
0010
0000
0103
0000
2010
0000
0100
0000
0010
0000
3100
0000
1201
0000
0000
0000
0001
0000
0310
0000
,
1002
0000
1000
0000
0100
0000
1003
0000
0121
0000
0000
0000
1000
0100
0031
0000
0201
0000
0000
0000
0010
0000
0300
0000
2101
0000
0010
0000
0100
0000
3001
0000
,
1002
0010
2103
0010
3211
0000
0310
0000
1002
0100
1000
0013
2101
0001
0010
3100
,
0012
0100
2013
0100
3211
0000
0301
0000
0120
1000
0100
0031
1210
0001
0010
0301
,
2100
0010
3201
0010
1312
0000
1003
0100
0012
0000
0100
0013
1210
0010
1001
0310
,
1001
0011
0100
0000
1001
1100
0020
0000
2130
0000
0000
3000
1201
0000
0010
0300
,
1012
0100
0023
0000
1231
0000
2310
0000
3112
0010
0000
0003
1021
0000
0100
0030
,
1120
0100
0230
0000
1312
0000
0023
0000
1230
1000
0000
0300
1001
0000
1220
0300
,
2132
0013
3000
0000
0101
0000
1000
0000
0010
0010
0000
0000
1001
0000
0010
0000
,
0100
0100
0001
0000
0101
0010
0000
0000
1102
0010
0000
0003
1120
0000
1000
0030
,
2101
0010
3002
0000
1213
0000
2300
0000
3211
0010
0000
0300
1021
0000
0100
0030
,
1102
0010
0023
0000
1231
0000
2300
0000
3121
1000
0000
0030
1001
0000
0221
0030
,
2312
3100
0003
0000
1001
0000
0010
0000
0001
0001
0010
0000
0100
0000
1000
0100
,
0010
1000
0100
0000
0210
0000
0310
0000
2000
0000
0010
3100
2010
0000
0001
3010
,
2000
0000
0010
3100
0012
0000
0100
0003
2100
0000
0001
3100
1020
0100
1000
0031
,
0120
1000
0001
0130
0012
1000
0100
0013
0002
0000
1100
0003
0201
0000
0011
0300
,
0102
1000
0100
1003
1002
0100
0010
1003
0200
0010
1000
0310
2100
0001
0010
3100
,
2010
0000
0101
3000
0201
0000
1010
0300
1000
0010
0100
0001
1010
0100
0001
1000
,
0010
0000
0100
0000
1000
0000
0100
0001
1100
0000
0002
0000
0000
0000
0003
0000
1001
0000
0010
0000
0100
0000
1000
0000
0011
0000
1000
0000
0100
0000
0010
0000
,
0001
0000
0010
0000
1000
0000
0100
1000
0110
0000
2000
0000
0000
0000
3000
0000
1001
0000
1000
0000
0100
0000
0010
0000
1010
0000
0001
0000
0100
0000
0010
0000
,
0200
0000
0302
0000
1013
0000
2001
0000
3100
0020
0000
0030
0101
1000
0100
0001
,
1000
0000
0100
0000
0102
0000
2003
0000
3020
0000
0000
0030
1201
0000
0010
0300
,
2001
0100
3002
0000
1123
0000
0230
0000
1312
0100
0000
0003
1021
0000
0100
0030
,
1200
0001
0320
0000
1231
0000
2300
0000
3201
0010
0000
0300
1001
0000
2102
3000
,
2123
3001
0030
0000
0101
0000
0010
0000
1100
0001
0100
0000
0011
0000
0010
0000
,
0110
0001
1000
0000
0201
0000
0000
0300
1002
0100
0000
0003
2101
0000
0010
3000
,
1002
0010
2003
0000
3211
0000
0320
0000
2031
0010
0000
3000
1021
0000
1000
0030
,
0012
1000
0203
0000
2311
0000
3002
0000
1203
0010
0000
0300
1001
0000
2102
0003
,
3212
1003
0300
0000
1001
0000
0010
0000
1100
0001
0100
0000
0101
0000
0001
0000
,
0011
1000
0110
0000
2001
0000
0010
0000
3101
0010
1100
0000
0101
0000
0101
0010
,
0100
0001
1010
0000
0011
0000
1010
0100
0020
2031
3210
0320
1230
0320
1031
0100
,
1020
0001
0230
0000
1301
0000
2020
3000
1232
0323
1032
0023
0132
0023
1031
0010
,
0100
0000
1100
0000
0101
0000
2002
3000
0223
2030
3320
0230
1320
2030
3011
0100
,
1000
0120
0231
0320
1031
0020
0032
0023
2031
3020
0230
2300
3211
0320
0130
1001
,
0110
0000
1100
0000
0011
0000
1001
0110
1002
0023
0230
2300
3211
0320
1031
0101
,
1010
0000
0101
0000
1100
0000
0202
0003
2302
0023
3230
2300
3211
0320
1130
0110
,
0012
0000
0023
0000
0131
0000
2002
0003
3212
1300
0023
0032
1203
2300
3011
0110
,
2100
0020
3232
2003
3321
0200
0030
0300
2001
0000
0010
3000
0112
0000
1100
0003
,
1200
0001
0010
0300
0012
0000
0010
0003
0210
0001
1000
0300
1120
0000
0101
0030
,
1201
0000
0010
0300
2100
0000
0010
3000
0102
0010
1000
0003
1210
0000
1001
0300
,
1120
0001
1000
0030
2010
0000
0001
3000
0120
1000
0001
0030
1021
0000
1100
0030
,
2112
3200
0320
0233
2320
0032
0000
3003
1211
0000
1010
0300
1121
0000
1001
0030
,
2110
0000
0011
3000
0112
0000
1100
0003
0121
1000
1100
0030
0121
0001
1100
0030
,
0112
0000
1010
0103
1210
1000
0000
0300
1120
0000
1100
0030
2110
0000
0011
3000
,
0121
0000
1001
0030
1120
0000
1001
0030
1201
0000
1001
0300
1021
0000
1001
0030
,
2020
3232
2323
3232
2323
3232
2323
3030
0101
0000
1010
0000
0000
0000
0000
0000
;
